#TITLE:Blocks;
#SUBTITLE:~Ganos re-edit~;
#ARTIST:Sparker;
#TITLETRANSLIT:;
#SUBTITLETRANSLIT:;
#ARTISTTRANSLIT:;
#CREDIT:;
#BANNER:Blocks.png;
#BACKGROUND:Blocks-bg.png;
#LYRICSPATH:;
#CDTITLE:GanosCD.PNG;
#MUSIC:Blocks.mp3;
#OFFSET:-0.400;
#SAMPLESTART:63.610;
#SAMPLELENGTH:12.000;
#SELECTABLE:YES;
#BPMS:0.000=141.000,96.000=70.500,112.000=35.250,113.000=141.000,177.000=70.500;
#STOPS:;
#BGCHANGES:;
// cache tags:
#FIRSTBEAT:14.500;
#LASTBEAT:194.000;
#SONGFILENAME:Songs/Chilean Keyboard Megapack 3/(Ganos)Blocks/Blocks.sm;
#HASMUSIC:1;
#HASBANNER:1;
#MUSICLENGTH:101.937;
// end cache tags

//---------------dance-single - ----------------
#NOTES:
     dance-single:
     :
     Challenge:
     11:
     1.000,1.000,1.000,0.020,1.000,609.000,103.000,2.000,0.000,1.000:
0000
0000
0000
0000
,
0000
0000
0000
0000
,
0000
0000
0000
0000
,
0000
0000
0000
0000
0000
0001
0001
0000
,
1001
0100
0010
0001
0010
0100
1000
0100
0010
0100
1000
0010
0100
0001
0100
0010
,
1000
0100
0010
0001
1000
0010
0100
0001
0100
0010
1000
0100
0010
0001
0010
0100
,
1001
0100
0010
0001
0100
0010
1000
0100
0011
0100
1000
0010
0100
0001
0100
0010
,
1000
0001
1000
0001
1000
0001
1000
0001
1000
0001
1000
0001
1000
0001
1000
0001
1000
0001
1000
0001
1000
0001
1000
0001
1000
0001
1000
0001
1000
0001
1000
0001
,
1000
0000
0100
0010
0001
0010
0100
1000
0000
0011
0000
1000
0100
0010
0001
0000
,
1100
0000
0010
0001
0100
0010
1000
0001
0000
1100
0000
0010
0001
0100
0010
0000
,
1001
0000
0100
0010
1000
0010
0100
0001
0000
0110
0000
1000
0100
0010
0100
0000
,
0011
0000
1000
0001
0100
0010
1000
0010
0000
1100
0000
0010
0001
1000
0001
0000
,
0110
0000
0001
0010
0100
0010
0001
1000
0000
0101
0000
0010
1000
0001
1000
0000
,
0110
0000
1000
0010
0100
0001
1000
0100
0000
0011
0000
1000
0001
0100
0010
0000
,
1001
0000
0100
0010
0001
0010
0100
1000
0000
0110
0000
1000
0100
0010
0001
0000
,
1100
0000
0001
0000
0001
0000
0000
0000
1000
0000
0000
0100
0000
0000
0010
0000
,
1001
0000
0010
0001
1100
0001
0010
0100
0000
0011
0000
1000
0011
1000
0100
0000
,
0001
0000
1000
0001
1100
0001
1000
0010
0000
1001
0000
0100
0011
0100
0001
0000
,
1000
0000
0010
1000
0101
1000
0001
0010
0000
1100
0000
0010
0101
0010
0001
0000
,
1000
0000
0010
0001
1100
0001
0100
0010
0000
1001
0000
0100
1001
0100
0010
0000
,
0001
0000
0100
0010
1100
0010
0100
0001
0000
1010
0000
0100
0011
0100
0001
0000
,
1001
0000
0010
0100
1001
0100
0010
1000
0000
0101
0000
1000
0101
0010
0100
0000
,
1001
0010
0100
0001
0100
0010
1000
0100
0010
0100
1000
0100
0010
0001
1000
0001
,
1000
0001
1000
0001
1000
0001
1000
0001
1000
0001
1000
0001
1000
0001
1000
0001
1000
0001
1000
0001
1000
0001
1000
0001
1000
0001
1000
0001
1000
0001
1000
0001
,
1000
0100
0010
1000
0100
1000
0001
0010
0100
0010
0001
0100
0010
0100
0001
1000
,
0100
0001
1000
0100
0010
0100
1000
0001
0001
0100
1000
1000
0100
0001
0010
0100
,
0001
0010
0100
0001
0010
1000
0010
1000
0001
1000
0010
1000
0001
1000
0100
1000
,
1001
0000
0000
0000
0000
0000
0000
0000
1000
0000
0000
0000
0000
0000
0000
0000
0110
0000
0000
0000
0000
0000
0000
0000
0001
0000
0000
0000
0000
0000
0000
0000
1100
0000
0000
0000
0000
0000
0000
0000
0110
0000
0000
0000
0010
0000
0000
0000
1001
0000
0000
0000
0100
0000
0000
0000
0001
1000
0001
1000
0001
1000
0001
1000
,
0002
0000
0000
0000
1103
0000
0100
0000
0010
0010
0010
0001
0000
0001
1000
0000
,
0110
0000
0001
0000
0110
0000
0000
0000
0100
0100
0100
0010
0000
0010
1000
0000
,
0100
0100
0010
0010
0001
0000
0000
0000
0001
0001
0001
1000
0000
1000
0010
0000
,
0101
0000
1000
0000
0101
0000
0000
0000
0001
0001
0001
1000
0000
1000
0100
0000
,
0001
0001
0010
0010
0100
0000
1001
0000
0010
0010
0010
0001
0000
0001
0100
0000
,
1010
0000
0100
0000
1001
0000
0000
0000
0100
0100
0100
0010
0000
0010
1000
0000
,
1000
1000
0100
0100
0010
0000
0000
0000
0100
0100
0100
1000
0000
1000
0010
0000
,
0101
0000
0010
0000
1001
0000
0000
0000
0001
0001
0001
1000
0000
1000
0001
0000
,
0100
0100
0010
0010
1001
0000
0110
0000
0011
0001
0001
1000
0011
1000
0100
0000
,
0011
0000
0100
0000
0011
0000
0000
0000
0110
0010
0010
0001
1100
0001
0010
0000
,
1001
0100
0010
0100
1001
0000
0000
0000
1100
1000
1000
0001
0110
0001
1000
0000
,
0110
0000
0011
0000
0110
0000
0000
0000
0011
0001
0001
1000
0101
1000
0010
0000
,
0101
0010
1000
0010
0101
0000
1010
0000
0110
0010
0010
0001
0110
0001
1000
0000
,
0110
0000
0001
0000
1100
0000
0000
0000
0110
0010
0010
1000
0101
1000
0001
0000
,
1001
0100
0010
0100
1001
0100
0010
0001
0100
0010
1000
0100
0010
0001
0010
0100
,
0010
0001
1000
0010
1100
0000
1100
0000
1100
0000
1100
0000
1100
0011
1100
0011
,
1100
0000
0011
0000
1100
0000
0011
0000
1100
0000
0000
1000
0000
0000
1000
0000
0000
0000
0000
0000
0000
0000
0000
0000
0101
0000
0000
0001
0000
0000
0001
0000
,
1100
0000
0000
0100
0000
0000
0100
0000
1001
0000
0000
0001
0000
0000
0001
0000
1000
0000
0000
1000
0000
0000
1000
0000
0110
0000
0000
0010
0000
0000
0010
0000
,
1010
0000
0000
1000
0000
0000
1000
0000
0011
0000
0000
0001
0000
0000
0001
0000
0001
0010
0100
1000
0100
0010
0001
0010
1100
0010
0001
0100
0010
1000
0100
0010
,
0001
0000
0000
0000
0000
0000
0000
0000
1000
0000
0000
0000
0001
0000
0000
0000
0010
0000
0000
0000
0100
0000
0000
0000
1000
0000
0000
0000
0000
0000
0100
0000
0000
0000
0000
0000
0010
0000
0000
0000
0000
0000
0100
0000
0000
0000
0000
0000
1001
0000
0000
0000
0000
0000
0100
0000
0000
0000
0000
0000
0010
0000
0000
0000
0100
0000
0000
0000
0001
0000
0000
0000
1000
0000
0000
0000
0100
0000
0000
0000
0010
0000
0000
0000
0001
0000
0000
0000
1000
0000
0000
0000
0100
0000
0000
0000
0011
0000
0000
0000
0100
0000
0000
0000
1000
0000
0000
0000
0001
0000
0000
0000
0010
0000
0000
0000
0100
0000
0000
0000
1000
0000
0000
0000
0100
0000
0000
0000
0010
0000
0000
0000
0001
0000
0000
0000
0010
0000
0000
0000
0100
0000
0000
0000
2000
0000
0000
0000
0000
0000
0000
0000
0000
0000
0000
0000
0000
0000
0000
0000
0000
0000
0000
0000
0000
0000
0000
0000
0000
0000
0000
0000
0000
0000
0000
0000
0000
0000
0000
0000
0000
0000
0000
0000
0000
0000
0000
0000
0000
0000
0000
0000
,
0000
0000
3000
0000
;
